<?xml version="1.0" standalone="no"?>
<!DOCTYPE svg PUBLIC "-//W3C//DTD SVG 1.1//EN" "http://www.w3.org/Graphics/SVG/1.1/DTD/svg11.dtd" >
<svg xmlns="http://www.w3.org/2000/svg">
<metadata>
Created by FontForge 20120731 at Sun Feb 28 09:21:42 2016
 By Ads
</metadata>
<defs>
<font id="kanjia" horiz-adv-x="1024" >
  <font-face 
    font-family="kanjia"
    font-weight="500"
    font-stretch="normal"
    units-per-em="1024"
    panose-1="2 0 6 3 0 0 0 0 0 0"
    ascent="896"
    descent="-128"
    x-height="792"
    bbox="-10 -148 1028 880"
    underline-thickness="50"
    underline-position="-100"
    unicode-range="U+0078-E623"
  />
<missing-glyph horiz-adv-x="374" 
d="M34 0v682h272v-682h-272zM68 34h204v614h-204v-614z" />
    <glyph glyph-name=".notdef" horiz-adv-x="374" 
d="M34 0v682h272v-682h-272zM68 34h204v614h-204v-614z" />
    <glyph glyph-name=".null" horiz-adv-x="0" 
 />
    <glyph glyph-name="nonmarkingreturn" horiz-adv-x="341" 
 />
    <glyph glyph-name="x" unicode="x" horiz-adv-x="1001" 
d="M281 543q-27 -1 -53 -1h-83q-18 0 -36.5 -6t-32.5 -18.5t-23 -32t-9 -45.5v-76h912v41q0 16 -0.5 30t-0.5 18q0 13 -5 29t-17 29.5t-31.5 22.5t-49.5 9h-133v-97h-438v97zM955 310v-52q0 -23 0.5 -52t0.5 -58t-10.5 -47.5t-26 -30t-33 -16t-31.5 -4.5q-14 -1 -29.5 -0.5
t-29.5 0.5h-32l-45 128h-439l-44 -128h-29h-34q-20 0 -45 1q-25 0 -41 9.5t-25.5 23t-13.5 29.5t-4 30v167h911zM163 247q-12 0 -21 -8.5t-9 -21.5t9 -21.5t21 -8.5q13 0 22 8.5t9 21.5t-9 21.5t-22 8.5zM316 123q-8 -26 -14 -48q-5 -19 -10.5 -37t-7.5 -25t-3 -15t1 -14.5
t9.5 -10.5t21.5 -4h37h67h81h80h64h36q23 0 34 12t2 38q-5 13 -9.5 30.5t-9.5 34.5q-5 19 -11 39h-368zM336 498v228q0 11 2.5 23t10 21.5t20.5 15.5t34 6h188q31 0 51.5 -14.5t20.5 -52.5v-227h-327z" />
    <glyph glyph-name="uniE600" unicode="&#xe600;" 
d="M965 469q-7 6 -16.5 5t-15.5 -8l-38 -48q-2 29 -7 56q-24 113 -99.5 197.5t-182.5 120.5t-220 13q-84 -18 -154.5 -67t-113.5 -117t-61 -151.5t1 -169.5q23 -113 98.5 -197.5t183 -120.5t219.5 -12q122 25 211 115h1q0 1 1 2t1 2l3 9q0 8 -5.5 13.5t-13.5 5.5
q-4 0 -7.5 -2t-5.5 -5v1q-81 -82 -192 -105q-102 -21 -199 11.5t-165.5 109t-89.5 178.5q-11 64 -5 124t31.5 115t64 99t92 75t115.5 44q77 18 152 1.5t136 -56t105 -103.5t60 -141q5 -24 7 -48l-46 37q-7 6 -16.5 5t-15 -8t-4.5 -16.5t8 -15.5l86 -69q2 -2 5 -3t5.5 -1.5
t5.5 0.5q10 0 16 8l68 86q6 7 5 16.5t-8 14.5zM460 151q0 -3 1 -6t3 -5.5t4.5 -4.5t5.5 -2.5t6 -0.5q8 0 13.5 5.5t5.5 13.5v115h117q5 0 9.5 2.5t7 7t2.5 9.5t-2.5 9.5t-7 7.5t-9.5 3h-117v59h117v1q8 0 13.5 5.5t5.5 13.5q0 3 -1 5.5t-2 4.5t-3 4l-4 2q-2 2 -4.5 2.5
t-4.5 0.5h-117v36l116 113h-1q6 5 6.5 13t-4.5 14t-13 6.5t-14 -4.5l-109 -107l-114 112q-2 2 -5 3.5t-6 1.5t-6 -0.5t-5.5 -2t-4.5 -4.5q-5 -5 -5 -13t6 -14l120 -117v-37h-116q-5 0 -9.5 -2.5t-7 -7t-2.5 -9.5t2.5 -9.5t7 -7.5t9.5 -3h116v-59l-116 -1q-8 0 -13.5 -5.5
t-5.5 -13.5q0 -4 1.5 -7.5t4 -6t6 -4t7.5 -1.5h116v-115v0z" />
    <glyph glyph-name="uniE601" unicode="&#xe601;" horiz-adv-x="1026" 
d="M811 598h37q7 0 12 -6l162 -203q3 -4 3 -9v-249q0 -19 -14 -33q-6 -6 -14.5 -9.5t-17.5 -3.5h-56q-6 -43 -37.5 -72.5t-74.5 -32.5v29q17 2 32.5 9.5t26.5 19.5t17.5 28t6.5 34q0 35 -24 61t-59 29v30q43 -3 74.5 -33t36.5 -72h57q7 0 12 4q4 6 4 12v180h-184v30h184v34
l-82 103h-102v30h79l-49 60h-30v30zM333 753q14 -7 26.5 -16.5t23.5 -20.5t20 -23h165q25 0 42 -18q17 -17 17 -42v-35h184v-30h-184v-453h57q6 45 40 75t79 30h8v-30h-8q-37 0 -63.5 -26.5t-26.5 -64t26.5 -64t63.5 -26.5h5q2 0 3 1v-30h-8q-45 0 -79.5 30t-39.5 75h-300
q-6 -53 -51 -84v40q22 25 22 59q0 16 -5.5 31.5t-16.5 27.5v39q44 -30 51 -83h214v518q0 6 -2.5 11.5t-6.5 9.5q-9 9 -21 9h-146q13 -24 20 -51t7 -55q0 -93 -66 -159q-11 -11 -23.5 -20.5t-26.5 -17.5v35q17 11 29 24q27 27 42 62.5t15 75t-15 75.5t-42 63q-13 13 -29 24
v34zM811 508h-34q-13 0 -24 -6.5t-17.5 -17.5t-6.5 -24v-101q0 -13 6.5 -24t17 -17.5t23.5 -6.5h35v30h-35q-7 0 -12 5t-5 13v101q0 7 5 12.5t13 5.5h34v30zM225 781q14 0 28.5 -1.5t28 -5.5t26.5 -9t25 -12v-34q-11 7 -24 13.5t-26.5 10.5t-28 6.5t-29.5 2.5q-19 0 -36 -4
v31q9 1 18 1.5t18 0.5v0zM333 1q-31 -22 -68 -22q-14 0 -28 3.5t-26 9.5t-22 15v43q27 -41 76 -41q41 0 68 32v-40zM333 395v-34q-24 -14 -51.5 -21.5t-56.5 -7.5q-18 0 -36 3v30q17 -3 36 -3q59 0 108 33v0zM333 198v-39q-8 10 -18.5 17t-23.5 10.5t-26 3.5q-24 0 -44 -11
t-32 -30v44q33 27 76 27q18 0 35.5 -5.5t32.5 -16.5v0zM189 508v38l21 18v128q0 10 7.5 14t14.5 0t7 -14v-135q0 -7 -5 -12zM189 7q-38 30 -44 78h-46q-25 0 -42.5 17.5t-17.5 42.5v285q-39 58 -39 127q0 93 66 159q52 51 123 63v-31q-12 -2 -23.5 -5.5t-22 -8.5t-20.5 -11
t-19 -13t-17 -15q-57 -58 -57 -138.5t57 -137.5q43 -43 102 -54v-30q-34 6 -65 21.5t-55 38.5v-250q0 -13 8.5 -21.5t21.5 -8.5h46q6 47 44 78v-44q-15 -22 -15 -49q0 -14 4 -26.5t11 -23.5v-43zM189 546l-23 -19l-21 -18q-8 -6 -6 -14.5t9 -11t16 2.5l25 22v38zM189 546z
" />
    <glyph glyph-name="uniE602" unicode="&#xe602;" 
d="M441 762q2 11 12 20t22 9h72q13 0 24 -8t13 -21q0 -4 3.5 -23.5t6 -35t3.5 -21.5t3.5 -11t4.5 -6l2 -2q22 -10 32 -14q3 -1 6 -1t5.5 0.5t4.5 1t3 1.5l1 1q59 41 70 49q8 6 21.5 6t19.5 -6q44 -43 55 -54q10 -10 11 -24.5t-6 -22.5q-41 -58 -47 -66q-9 -13 -4 -25
q10 -26 11 -28q4 -10 15 -12q6 0 38.5 -5.5t45.5 -7.5q9 -2 16 -7.5t11 -14t4 -19.5v-18v-25q0 -12 -1 -21q0 -15 -7.5 -25.5t-22.5 -12.5q-2 -1 -6 -1q-68 -12 -75 -14q-13 -2 -18 -12q0 -1 -1.5 -4t-2 -4.5t-2 -4t-2.5 -4.5l-2 -4q-1 -2 -1 -4q-6 -13 2 -23q0 -1 1 -2
q8 -12 15 -21.5t18 -25t14 -20.5q7 -10 7 -22.5t-12 -27.5q-36 -35 -47 -47q-24 -23 -51 -4q-54 39 -62 44q-14 11 -27 6l-6 -3q-4 -2 -6 -2.5t-4.5 -2t-4.5 -2.5t-5 -2q-11 -7 -13 -18q-10 -65 -14 -81q-5 -30 -44 -31h-59q-34 1 -40 33q-11 67 -13 77l-2 6q-1 3 -2 5.5
t-3 4.5t-4 3.5t-5 2.5l-6 3q-3 1 -4 1.5t-3 1t-3 1t-2.5 1.5t-3.5 1q-3 2 -11.5 2t-15.5 -5q-48 -34 -64 -45q-13 -9 -27 -8t-24 11q-39 38 -48 48q-3 3 -5.5 7.5t-4 10t-1.5 10.5t1.5 10.5t4.5 9.5q1 1 6 8t6.5 9.5t6.5 9t7.5 10.5t6.5 9.5t7 9.5t5 7q8 11 8.5 17t-3.5 14
l-9 22l-2 4l-4 4q-1 2 -3.5 3t-5.5 2l-6 2q-51 8 -73 12q-37 7 -37 41v62q0 16 8 27.5t22 13.5q8 1 37 6t38 7q7 1 11 2t7.5 3t5 4.5t3.5 6.5q9 22 11 27q3 10 -8 26q-1 1 -4.5 6t-5.5 8t-5.5 8t-6.5 9t-6 9t-6 9l-6 8q-5 7 -7.5 14t-3 14t2 14t7.5 12q2 1 8 7.5t9 9.5
t9 8.5t9 8.5l8 8l7 7q9 9 21.5 10.5t26.5 -7.5q2 -1 6.5 -4.5t8 -6t8.5 -5.5t8.5 -6t8 -6t8 -5.5t7 -4.5t6.5 -4q11 -8 16.5 -9t12.5 1l5 2q3 2 5.5 3t5.5 2t5 2l4 2q2 1 3 1h1q9 4 11 18q1 1 1 4zM453 677q-5 -30 -28 -39q-8 -3 -27 -11q-8 -4 -16.5 -4.5t-17 2t-15.5 7.5
q-14 10 -64 46q-5 4 -10 3.5t-9 -4.5l-12 -11l-21 -22q-12 -12 -13 -14q-9 -8 -1 -19l44 -62q18 -25 8 -50q-2 -4 -3 -7t-2 -4.5t-2 -3.5l-1 -4q-1 -3 -3 -8q-10 -23 -44 -29q-6 -1 -18.5 -3t-23 -4t-20.5 -3.5t-11 -1.5q-12 -2 -12 -14v-66q0 -5 3 -9t9 -5q2 0 13 -2
t22.5 -4t24.5 -4t17 -3q28 -5 38 -27q3 -8 4.5 -11t3 -6.5t4.5 -11.5q11 -25 -10 -53l-40 -58q-3 -3 -4 -5.5t-1 -5t1 -5t4 -5.5l24 -24l22 -22q7 -7 18 -1q3 2 16.5 11.5t30 21.5t19.5 14q9 7 21 8.5t30 -4.5q10 -4 14 -5.5t6.5 -2.5t6.5 -3q9 -3 16 -14.5t9 -25.5
q9 -61 13 -75q4 -12 14 -12h65q12 0 14 12l12 70q6 37 34 48q5 2 8 4l4 2h1h1l2 1q2 1 6 2q11 5 23.5 4t25.5 -10q11 -8 25 -17.5t26 -18t13 -8.5q11 -8 19 0l7 7l10 10l13 13l11 11l6 6q8 8 1 18l-50 70q-12 17 -3 42q8 19 11 27q2 4 4.5 8t6.5 7l8 6q4 3 9 5t11 2
q4 1 12 2.5t16.5 3t17.5 3t16.5 3t13.5 2.5l5 1q9 1 9 11v68q0 5 -2.5 9t-8.5 5l-85 14q-8 1 -15 6.5t-11.5 12t-6.5 13.5l-10 22q-5 11 -3.5 24t9.5 24q2 3 4.5 6.5t5.5 8t6.5 9.5t6.5 9.5t6.5 9t6.5 9t5.5 7.5t4 5.5t1.5 3.5q3 4 2.5 7t-3.5 7l-8 8l-15 15l-15 15l-9 9
q-9 9 -18 3q-2 -1 -13.5 -9t-24 -17t-24.5 -17.5t-13 -8.5q-5 -4 -17 -5t-19 2q-1 0 -32 13q-5 2 -10.5 7.5t-9.5 12.5t-5 13q-1 4 -3.5 18t-5 27.5t-4.5 26.5t-2 14q-2 10 -12 10h-17h-34h-18q-5 0 -8 -4t-4 -7q0 -1 -0.5 -4t-2 -9.5t-2 -12t-2 -14.5t-2.5 -13.5
t-2.5 -13.5t-1.5 -11zM681 384q0 -70 -49.5 -119.5t-119.5 -49.5t-119.5 49.5t-49.5 119.5q0 34 13.5 65.5t36 54t54 36t65.5 13.5q14 0 27.5 -2t26 -6.5t24.5 -10.5t22.5 -13.5t19.5 -17t16.5 -20t14 -22t10.5 -24t6 -26t2 -27.5zM512 580q-81 0 -138 -57.5t-57 -138.5
t57 -138.5t138 -57.5t138.5 57.5t57.5 138.5q0 53 -26 98t-71.5 71.5t-98.5 26.5z" />
    <glyph glyph-name="uniE603" unicode="&#xe603;" 
d="M984 19h-946q-2 0 -3.5 1.5t-1.5 3.5v720q0 5 5 5h946q5 0 5 -5v-720q0 -5 -5 -5zM921 703h-820h-6q-13 0 -15 -2t-2 -15v-6v-592q0 -19 2 -21t21 -2h820q19 0 21 2t2 21v592q0 19 -2 21t-21 2zM896 521h-770q-2 0 -2 2v41q0 1 0.5 1.5t1.5 0.5h770q2 0 2 -2v-41
q0 -2 -2 -2zM648 430h182q2 0 4.5 -0.5t4.5 -1.5t3 -2l4 -4l2 -2q2 -2 3 -4t1.5 -4.5t0.5 -4.5v-137q0 -5 -2 -9t-5 -7t-7.5 -5t-8.5 -2h-182q-10 0 -16.5 7t-6.5 16v137q0 9 6.5 16t16.5 7zM670 293h137v91h-137v-91z" />
    <glyph glyph-name="uniE604" unicode="&#xe604;" horiz-adv-x="1026" 
d="M811 598h37q7 0 12 -6l162 -203q3 -4 3 -9v-249q0 -19 -13.5 -32.5t-32.5 -13.5h-56q-4 -28 -19.5 -51.5t-39.5 -37.5t-53 -16v29q35 3 59 29t24 62q0 17 -6.5 33t-17.5 28t-26.5 19.5t-32.5 9.5v30q22 -2 41 -10.5t33.5 -22.5t24.5 -32.5t12 -39.5h57q3 0 6 1t6 3
q4 6 4 12v180h-184v30h184v34l-82 103h-102v30h79l-49 60h-30v30zM333 753q14 -7 26.5 -16.5t23.5 -20.5t20 -23h165q25 0 42 -18q17 -17 17 -42v-35h184v-30h-184v-453h57q3 22 13.5 41.5t26.5 33.5t36.5 22t42.5 8h8v-30h-8q-37 0 -63.5 -26.5t-26.5 -64t26.5 -64
t63.5 -26.5q5 0 8 1v-30h-8q-45 0 -79.5 30t-39.5 75h-300q-6 -53 -51 -84v40q22 25 22 59q0 11 -2.5 21.5t-7.5 20t-12 17.5v39q44 -30 51 -83h214v518q0 12 -9 21t-21 9h-146q9 -16 15 -33t9 -35.5t3 -37.5q0 -93 -66 -159q-7 -7 -15 -14t-16.5 -12.5t-18.5 -11.5v35
q17 11 29 24q14 13 24.5 29t18 33t11 36.5t3.5 39.5q0 39 -15 75t-42 63q-13 13 -29 24v34zM811 508h-34q-13 0 -24 -6.5t-17.5 -17.5t-6.5 -24v-101q0 -20 14 -34t33 -14h35v30h-35q-7 0 -12 5t-5 13v101q0 7 5 12.5t13 5.5h34v30zM225 781q29 0 56.5 -7t51.5 -21v-34
q-11 7 -24 13.5t-26.5 10.5t-28 6.5t-29.5 2.5q-19 0 -36 -4v31q9 1 18 1.5t18 0.5v0zM333 1q-31 -22 -68 -22q-9 0 -17 1.5t-16 3.5t-15.5 5.5t-14.5 7.5t-13 10v43q27 -41 76 -41q41 0 68 32v-40zM333 395v-34q-50 -29 -108 -29q-9 0 -18 1l-18 2v30q17 -3 36 -3
q29 0 57 8.5t51 24.5v0zM333 198v-39q-8 10 -18.5 17t-23.5 10.5t-26 3.5q-24 0 -44 -11t-32 -30v44q33 27 76 27q18 0 35.5 -5.5t32.5 -16.5v0zM189 7q-38 30 -44 78h-46q-25 0 -42.5 17.5t-17.5 42.5v285q-39 58 -39 127q0 93 66 159q52 51 123 63v-31q-29 -5 -55 -19
t-47 -34q-57 -58 -57 -138.5t57 -137.5q43 -43 102 -54v-30q-34 6 -65 21.5t-55 38.5v-250q0 -13 8.5 -21.5t21.5 -8.5h46q6 47 44 78v-44q-15 -22 -15 -49q0 -14 4 -26.5t11 -23.5v-43zM210 460q-6 -6 -14.5 -5.5t-14.5 6.5l-68 72q-6 6 -5.5 14.5t6.5 14.5q6 5 14 5t14 -6
l69 -73q5 -6 5 -14t-6 -14zM218 458q-6 -5 -14.5 -5t-14.5 6l-2 3q-2 2 -3.5 4.5t-2 5t-0.5 5t1 5t2 4.5t3 4l128 121q3 3 7 4.5t7.5 1.5t7.5 -2t7 -5l2 -2q6 -6 5.5 -14.5t-6.5 -14.5z" />
    <glyph glyph-name="uniE605" unicode="&#xe605;" 
d="M322 623q70 -64 205 -203t248.5 -258.5t117.5 -123.5q20 -19 47 -10.5t34.5 30.5t-8.5 44q-39 38 -183.5 187.5t-270 279.5t-131.5 135q-9 6 -19.5 7.5t-19.5 -2t-17.5 -10t-13 -16t-6.5 -19.5t2.5 -21t14.5 -20zM46 501v-9q0 -6 2 -23.5t6 -34.5t13.5 -40.5t22 -44.5
t33 -42.5t46.5 -37.5t63 -28t81 -16v13q0 8 3.5 33t11 51t24.5 62.5t41 71t63.5 74t89.5 73.5l-126 132l-29 -42q-108 -137 -266 -178q-39 -10 -79 -14z" />
    <glyph glyph-name="uniE606" unicode="&#xe606;" 
d="M71 768v-677l16 -16q26 -14 87 -47l93 -51q15 -9 30 -1l96 44q72 33 111 52q7 3 16 -1l95 -47q63 -32 94 -47q15 -8 30 0q116 58 197 98q9 4 13 11t4 17v225v204v225q0 8 -1 13q-4 15 -19 12q-6 -1 -12 -4q-5 -3 -30 -15.5t-33.5 -16.5t-30 -15t-33.5 -17t-29.5 -14.5
t-32.5 -16.5q-8 -4 -16 0q-29 14 -92.5 46t-96.5 49q-8 4 -15 4t-14 -4q-40 -18 -112 -51.5t-95 -44.5q-3 -1 -5.5 -1.5t-4.5 0t-5 2.5q-79 43 -174 95q-11 6 -18.5 3.5t-12.5 -13.5zM495 738v-8v-616q0 -8 -8 -11q-70 -33 -179 -83q-1 -1 -3.5 -1.5t-3.5 -1.5l-1 5v619
q0 7 7 10q73 34 131 60q8 4 16.5 8t21.5 10t19 9zM742 18q-1 5 -1 9v614q0 4 1.5 6.5t5.5 4.5q28 14 82.5 41t79.5 40q1 0 3 1q3 1 5 2v-9v-613q0 -8 -7 -12q-7 -3 -26.5 -13t-28 -14t-25.5 -13t-28.5 -14.5t-26 -12.5t-27.5 -14q-1 0 -3.5 -1t-3.5 -2zM706 18q-6 2 -9 4
q-25 12 -78.5 39t-81.5 41q-7 5 -8 13v611q0 3 1 9v1l6 -3q2 -1 3 -1q73 -37 159 -79q8 -4 8 -14v-611v-10zM265 19q-2 1 -5 2h-1q-87 48 -147 81q-6 3 -6 12v611v10q2 -1 5 -2l5 -3q101 -55 140 -76q9 -5 9 -16v-210v-188v-210v-11z" />
    <glyph glyph-name="uniE607" unicode="&#xe607;" 
d="M751 261l38 -305l-278 130l-278 -130l38 305l-210 224l302 58l148 269l148 -269l301 -58zM631 506l-120 223l-121 -223l-245 -49l171 -186l-31 -253l226 109l226 -109l-31 253l171 186z" />
    <glyph glyph-name="uniE608" unicode="&#xe608;" 
d="M512 -32q-85 0 -162 33q-75 31 -132.5 88.5t-88.5 132.5q-33 77 -33 162t33 162q31 75 88.5 132.5t132.5 88.5q77 33 162 33q42 0 83 -8t79 -25q25 -10 48 -23.5t44 -30t40 -35.5q58 -57 89 -132q33 -77 33 -162t-33 -162q-15 -37 -37.5 -70.5t-51.5 -61.5
q-57 -58 -132 -89q-77 -33 -162 -33zM512 771q-79 0 -150.5 -30.5t-123.5 -82.5t-82.5 -123.5t-30.5 -150.5q0 -105 51.5 -194.5t141 -141t194.5 -51.5t194.5 51.5t141 141t51.5 194.5t-51.5 194.5t-141 141t-194.5 51.5zM735 360h-444q-3 0 -5.5 1t-4.5 3t-3 4.5t-1 5.5
q0 6 4 10.5t10 4.5h444q3 0 5.5 -1t4.5 -3t3 -5t1 -6q0 -6 -4 -10t-10 -4zM735 239h-444q-6 0 -10 4t-4 10q0 2 0.5 4t1.5 3l2 4q1 1 2.5 2t3.5 1.5t4 0.5h444q6 0 10 -4.5t4 -10.5t-4 -10t-10 -4zM512 128q-4 0 -7.5 2t-5 5.5t-1.5 6.5v244q0 3 1 5.5t3 4.5t4.5 3t5.5 1
q2 0 4 -0.5t3.5 -1.5t3 -2.5t1.5 -3.5l2 -2v-4v-244q0 -6 -4 -10t-10 -4zM512 352l-194 255q-4 5 -3 11t6 9q2 2 5 3t5.5 0.5t5 -2t4.5 -3.5l171 -225l167 224q9 12 20.5 3.5t2.5 -20.5z" />
    <glyph glyph-name="uniE609" unicode="&#xe609;" 
d="M722 530h-323q-3 0 -6 -1t-5 -3.5t-3 -5.5t-1 -6q0 -2 1 -4.5t2 -4.5t3 -3.5t4 -2.5t5 -1h323q7 0 11 4.5t4 11.5q0 3 -1 6t-3 5.5t-5 3.5t-6 1zM287 514q0 -3 1 -6t3 -5t4.5 -3.5t4.5 -1.5h39q5 0 9 4.5t4 11.5t-4 11.5t-9 4.5h-39q-5 0 -9 -4.5t-4 -11.5zM722 353h-323
q-6 0 -10.5 -4.5t-4.5 -11.5q0 -4 2 -8t5.5 -6t7.5 -2h323q7 0 11 4.5t4 11.5t-4 11.5t-11 4.5zM339 353h-39q-2 0 -4.5 -1.5t-4.5 -3.5t-3 -5t-1 -6q0 -2 0.5 -4t1.5 -4t2 -3.5t2.5 -2.5t3.5 -1.5t3 -0.5h39q5 0 9 4.5t4 11.5t-4 11.5t-9 4.5zM722 176h-323q-6 0 -10.5 -5
t-4.5 -11q0 -5 2 -8.5t5.5 -5.5t7.5 -2h323q7 0 11 4.5t4 11t-4 11.5t-11 5zM339 176h-39q-3 0 -6 -2t-5 -6t-2 -8.5t2 -8t5 -5.5t6 -2h39q5 0 9 4.5t4 11t-4 11.5t-9 5zM400 643h225q13 0 22.5 9.5t9.5 22.5v81q0 8 -4 15.5t-11.5 12t-16.5 4.5h-225q-14 0 -23.5 -9.5
t-9.5 -22.5v-81q0 -13 9.5 -22.5t23.5 -9.5zM400 756h225v-81h-225v81zM818 788h-129v-32h129q20 0 34.5 -14.5t14.5 -34.5v-644q0 -20 -14.5 -34t-34.5 -14h-612q-20 0 -34 14t-14 34v644q0 20 14 34.5t34 14.5h129v32h-129q-33 0 -56.5 -23.5t-23.5 -57.5v-644
q0 -22 10.5 -40.5t29 -29t40.5 -10.5h612q11 0 21.5 2.5t19.5 8t16.5 13t12.5 16t8 19t3 21.5v644q0 11 -3 21.5t-8 19.5t-12.5 16.5t-16.5 12.5t-19.5 8t-21.5 3z" />
    <glyph glyph-name="uniE60A" unicode="&#xe60a;" 
d="M725 265zM123 513l377 -215q11 -7 22 0h1l378 215q5 4 8 9t3 11q0 14 -11 20l-378 215v1h-1q-11 6 -22 0l-377 -215q-12 -7 -11 -21q0 -6 3 -11.5t8 -8.5zM511 723l334 -190l-334 -190l-333 190zM123 348l377 -215q11 -6 22 0h1l378 216q8 4 10.5 13t-2 17t-13.5 10.5
t-17 -1.5l-368 -209l-366 208q-5 3 -11 3t-11 -3t-8 -8q-5 -9 -2.5 -18t10.5 -13zM879 230l-368 -209l-366 208q-8 5 -17 2.5t-13 -10.5q-3 -6 -3 -11.5t3 -11t8 -8.5l377 -215q11 -6 22 0h1v1l378 215q5 3 8 8t3 11t-3 12q-3 5 -8 8t-11 3t-11 -3z" />
    <glyph glyph-name="uniE60B" unicode="&#xe60b;" 
d="M512 423q118 0 214.5 24t151 65.5t54.5 91.5t-54.5 91t-151 64.5t-214.5 23.5t-214 -23.5t-151 -64.5t-55 -91t55 -91.5t151.5 -65.5t213.5 -24zM512 752q79 0 153.5 -14t125 -36t81 -48t30.5 -50q0 -9 -5 -19.5t-14.5 -20.5t-23.5 -20.5t-31 -20t-38.5 -18.5t-45 -17
t-51 -14.5t-56 -11t-60.5 -7t-65 -2.5q-79 0 -153 14.5t-124.5 37t-81 49t-30.5 50.5t30.5 50t81 48t124.5 36t153 14v0zM512 198q88 0 166 15t133 40t87.5 59t32.5 72q0 39 -36 74v0h-1v1v-1q-7 6 -14 6q-10 0 -21 -16q-2 -5 0 -5q5 3 11 -3q1 -2 2 -2q11 -11 21 -27.5
t10 -26.5q0 -24 -30.5 -51.5t-81.5 -50.5t-125.5 -38.5t-153.5 -15.5t-153.5 15.5t-125 38.5t-81 50.5t-30.5 51.5q0 25 22 45v0l1 1q1 1 3 2t3 2t1 4q0 2 0.5 5.5t0.5 6t-0.5 5.5t-1 5t-2.5 3t-4 1q-5 0 -8.5 -1.5t-6.5 -4.5q-4 -3 -7 -6l-6 -8q-3 -3 -5.5 -6.5t-4.5 -7.5
t-4 -7.5t-3.5 -7.5t-2.5 -7.5t-2 -7.5t-1 -8v-8q0 -50 54 -93t150.5 -68t213.5 -25v0zM895 240h-1v0q-6 6 -14 6t-14 -6t-6 -15q0 -2 0.5 -3.5t1.5 -2.5l4 -2q1 -1 3 -2t3 -2q31 -31 31 -48q0 -23 -30.5 -49t-81.5 -48t-125 -36t-154 -14q-53 0 -105 6.5t-94.5 17.5
t-78.5 26t-60.5 31t-38 33.5t-13.5 32.5q0 8 4 16.5t10.5 16t15.5 15.5v0l8 -2q5 6 5 14q0 9 -6 15t-14.5 6t-14.5 -6q-38 -37 -38 -72q0 -50 55 -91.5t151.5 -65t213.5 -23.5q71 0 135.5 9t116 25.5t89.5 38.5t58.5 49.5t20.5 57.5q0 35 -37 71v1v0v0zM895 240z" />
    <glyph glyph-name="uniE60C" unicode="&#xe60c;" 
d="M1024 26h-1024v250l10 3q37 8 61 37.5t24 67.5q0 25 -11 47.5t-30.5 37.5t-43.5 20l-10 3v250h1024v-250l-10 -3q-37 -8 -61 -37.5t-24 -67.5q0 -19 6.5 -36.5t17.5 -31.5t27 -23.5t34 -13.5l10 -3v-250zM26 51h972v205q-21 7 -38.5 19.5t-29.5 29t-19 37t-7 42.5
q0 29 11.5 55t33 45t49.5 28v205h-972v-205q42 -13 68 -48.5t26 -79.5q0 -29 -11.5 -55t-33 -45t-49.5 -28v-205zM282 730h25v-52h-25v52zM307 207h-25v118h25v-118zM307 443h-25v118h25v-118zM282 90h25v-52h-25v52zM637 379l-130 148l20 16l110 -126l108 126l20 -16z
M625 399h25v-204h-25v204zM525 410h225v-26h-225v26zM525 307h225v-25h-225v25z" />
    <glyph glyph-name="uniE60D" unicode="&#xe60d;" 
d="M513 404zM250 503l-21 3l229 296l79 -67l-224 -222zM246 500l17 10l25 3l223 221l-50 43zM523 503l-225 -4l-10 11l268 268l236 -235l-30 -30zM312 510l426 4l29 29l-211 210zM931 147h-243q-19 0 -32 15t-13 36v83q0 21 13 36t32 15h243v-185zM688 315q-11 0 -19.5 -10
t-8.5 -24v-83q0 -14 8.5 -24t19.5 -10h225v151h-225zM683 259h34v-35h-34v35zM921 -35h-819q-10 0 -10 9v531q0 9 10 9h819q4 0 7 -3t3 -6v-531q0 -9 -10 -9zM108 -20h807v519h-807v-519z" />
    <glyph glyph-name="uniE60E" unicode="&#xe60e;" 
d="M512 791q-73 0 -142 -22.5t-124 -64t-97 -97t-64.5 -124t-22.5 -142.5q0 -91 35.5 -174.5t96 -143.5t143.5 -96t175 -36t175 36t143.5 96t96 143.5t35.5 175t-35.5 175t-96 143.5t-143.5 95.5t-175 35.5zM675 688q119 -57 179 -174l-120 -93q-11 30 -29.5 56t-42.5 46
t-53 33zM343 689l70 -134q-42 -19 -74 -54t-49 -79l-130 90q61 120 183 177zM335 -11q-108 53 -166 158l129 95q38 -81 119 -116zM340 341.5q0 71.5 50.5 122t121.5 50.5t121.5 -50.5t50.5 -122t-50.5 -122t-121.5 -50.5t-121.5 50.5t-50.5 122zM684 -9l-68 139
q35 17 63 45.5t46 64.5l120 -95q-57 -101 -161 -154z" />
    <glyph glyph-name="uniE60F" unicode="&#xe60f;" 
d="M627 663v1h-1zM512 832h-13q-6 0 -12.5 -0.5t-12.5 -1t-13 -1.5q-30 -3 -59 -10.5t-57 -18.5q301 -298 309 -309v317q-3 1 -6.5 2.5t-7 2.5t-6.5 2t-7 2q-57 15 -115 15v0zM627 663l-1 1h1v-1zM788 502h1l-1 1v-1zM826 703q-9 8 -18.5 16.5t-19.5 16.5q-23 19 -49 34.5
t-53 26.5q2 -423 0 -437l224 225q-6 13 -13 25q-30 52 -71 93v0zM788 502v1l1 -1h-1zM789 268v1v-1zM925 550q-298 -301 -309 -309h317q5 13 9 27q7 28 11 57t4 59q0 24 -3 50q-1 12 -3 24t-5 24l-6 22q-3 12 -7 23.5t-8 22.5zM789 268v1v-1zM625 105v-1v1zM483 207
l225 -224q13 6 25 13q51 30 92 71q17 17 34 38q19 24 34 49.5t27 52.5q1 0 -24 0h-61h-83q-46 0 -91.5 -0.5t-84.5 -0.5t-64.5 0.5t-28.5 0.5v0zM625 105v-1v1zM395 105h1h-1zM368 278v-318q13 -4 27 -8q57 -15 115 -15q25 0 51 3q60 6 116 29l-17 17q-17 16 -43.5 42.5
t-59 58.5t-65.5 65l-60 60q-27 27 -45 45.5t-19 20.5zM395 105h1h-1zM233 268v1v-1zM336 410l-224 -224q5 -12 13 -25q29 -52 71 -93q6 -6 12 -11.5t12.5 -11t13.5 -10.5q47 -38 102 -61v110q-1 110 -1 207t1 119v0zM233 268v1v-1zM233 500zM80 500q-7 -28 -11 -57t-4 -58
q0 -13 1 -25.5t2 -25.5q7 -60 29 -115l303 303l6 6h-317q-3 -7 -5 -14l-4 -14v0zM233 500zM395 662zM287 771q-51 -30 -92 -71q-17 -17 -34 -38q-19 -24 -34 -49.5t-27 -53.5h437l-225 225q-13 -7 -25 -13zM395 662zM395 662z" />
    <glyph glyph-name="uniE610" unicode="&#xe610;" horiz-adv-x="1025" 
d="M920 722h-615q-1 0 -9.5 45t-9.5 47q-3 12 -14 16t-43 4h-112q-11 0 -21.5 -4.5t-17.5 -12t-11.5 -18t-4.5 -21.5q0 -15 7.5 -28t20 -20.5t27.5 -7.5h80l97 -523q3 -19 5.5 -30.5t6.5 -24t8 -19t10.5 -12.5t15 -8t20.5 -2l489 1q23 0 39.5 16t16.5 39t-16.5 39.5
t-39.5 16.5h-449l-10 56h418q8 0 11.5 0.5t10.5 0.5t11 1t9.5 3t9 5t7.5 6.5t7 9.5t5 13l81 357q7 23 -5 38.5t-35 15.5v1zM399.5 46q-23.5 0 -40 -16t-16.5 -39.5t16.5 -40t40 -16.5t40 16.5t16.5 40t-16.5 39.5t-40 16zM849.5 46q-23.5 0 -40 -16t-16.5 -39.5t16.5 -40
t40 -16.5t40 16.5t16.5 40t-16.5 39.5t-40 16z" />
    <glyph glyph-name="uniE611" unicode="&#xe611;" horiz-adv-x="1025" 
d="M512 834q-53 0 -103.5 -12t-94.5 -34t-83 -53t-70 -70t-53 -83t-34 -94.5t-12 -103.5q0 -92 35.5 -175t96 -143.5t143.5 -96t175 -35.5t175 35.5t143.5 96t96 143.5t35.5 175q0 61 -16 119.5t-45 108t-70.5 91t-91 70.5t-108 45t-119.5 16zM770 501l-291 -291
q-10 -10 -24 -12t-25 5q-3 2 -5 3.5t-4 3.5l-167 167q-12 12 -12 29t12 29q8 8 18.5 10.5t21 0t17.5 -10.5l139 -139l262 262q4 4 8 6.5t8 3.5t8.5 2t9.5 0l8 -2q5 -1 9 -3.5t7 -6.5q12 -12 12 -28.5t-12 -28.5z" />
    <glyph glyph-name="uniE612" unicode="&#xe612;" 
d="M800 503l-169 169l90 90q13 13 31.5 13t31.5 -13l106 -105q13 -14 13 -32.5t-13 -31.5zM675 672l125 -124l67 67q10 10 0 19l-105 105q-9 8 -19 0zM125 -2v168l478 478l169 -169l-478 -477h-169zM157 153v-124h124l446 446l-124 124zM152 171l147 -147l-23 -22l-146 147z
" />
    <glyph glyph-name="uniE613" unicode="&#xe613;" 
d="M514 832q-91 0 -174 -35.5t-143 -95.5t-95.5 -143t-35.5 -174t35.5 -174t95.5 -143t143 -95.5t174 -35.5q60 0 118 16t107.5 45t90.5 70.5t70 90.5t45 107t16 119q0 46 -9 90t-26 84t-41.5 76t-54.5 66.5t-66.5 55t-76 41t-84 26t-89.5 9.5zM513.5 -22
q-110.5 0 -204 54.5t-147.5 148t-54 203.5q0 82 32 157.5t86.5 129.5t129.5 86.5t158 32.5q110 0 203.5 -54.5t147.5 -148t54 -203.5t-54 -203.5t-147.5 -148t-204 -54.5zM542 413v165h-58v-165h-164v-58h164v-165h58v165h165v58h-165z" />
    <glyph glyph-name="uniE614" unicode="&#xe614;" 
d="M542 717v-34l56 -12v46h-56zM426 717v-46l45 16v30h-45zM477 832v-111h65v56h56v55h-121zM127 472v-115h84v58h-36v57h-48zM66 357h57v-49h-57v49zM429 59h49v-50h-49v50zM690 103l-28 -36h49zM605 51h51v-62h115v-50h-293v49h125zM838 290l-43 -81l43 -24v105zM838 172
h121v-121zM843 472h56v-50h-56v50zM843 353h63v69h53v-184h-48v70h-68v45zM766 733h94v-96h-94v96zM719 624v159h182v-190h-150l44 -60h164v299h-304v-169zM169 733h92v-91h-92v91zM302 607v170h-183v-188h176l-42 -56h-187v299h305v-190zM169 138h98v-98h-98v98zM306 150
v-155h-183v190h156l-33 58h-180v-304h297v159zM521 608l46 -3q131 -22 177 -127q19 -43 22 -98l-4 -43q-20 -128 -127 -175q-50 -21 -114 -24q-3 1 -8 1t-20.5 3t-30.5 7.5t-36 13.5t-38.5 21t-35 30.5t-29.5 41.5t-19.5 55t-6.5 69h-62q0 -3 0.5 -9.5t2.5 -25.5t6.5 -38
t14 -45t23 -48.5t36 -45.5t50 -40t67.5 -29t87 -14h10q7 0 27 2.5t39.5 6.5t46 14.5t49.5 24t46.5 36.5t40.5 52t28 70t11 89q1 12 0 30.5t-16.5 66t-43.5 84t-91 67.5t-150 33zM521 608h-11q-8 0 -29.5 -4.5t-41.5 -12t-45.5 -25t-44.5 -40.5t-33.5 -61t-18.5 -85h-62
q1 6 2 15.5t7 38t16.5 54t32 57.5t50.5 55.5t74.5 40.5t101.5 20zM703 138l182 -183q3 -2 8 -5.5t20 -4.5t29 10q4 3 8 8t5 21t-13 33l-181 176q-40 -43 -58 -55z" />
    <glyph glyph-name="uniE615" unicode="&#xe615;" 
d="M845 652l-271 163q-29 17 -62 17t-62 -17l-271 -163q-28 -16 -43.5 -43.5t-15.5 -58.5v-332q0 -21 7 -40.5t20.5 -35.5t31.5 -27l271 -162q29 -17 62 -17t62 17l274 164q8 4 10 12.5t-2 16.5q-3 5 -8 8t-11 2.5t-11 -3.5l-274 -163q-19 -11 -40 -11.5t-40 10.5l-271 163
q-39 23 -39 66v332q0 20 10.5 37.5t28.5 28.5l271 162q40 24 80 0l271 -162q39 -23 39 -66v-279q0 -8 6 -14.5t15 -6.5t15 6.5t6 14.5v279q0 31 -15.5 58.5t-43.5 43.5zM398 133q-3 -14 6 -25q5 -6 11.5 -9t13.5 -3q5 0 9.5 1.5t8.5 4.5t7 7l267 290l3 4q9 15 0 31
q-4 7 -10 11t-14 5l-165 41l55 143l1 4q0 7 -2.5 12.5t-6.5 10.5q-6 7 -15.5 9t-18 -1t-14.5 -10l-231 -226l-4 -4q-9 -16 -1 -32q9 -15 25 -16l151 -30l-76 -214v-4zM519 350l1 3q1 7 -0.5 14t-6.5 12q-8 10 -21 12l-142 28l179 175l-41 -106l-1 -4q0 -2 1 -4v-6
q1 -2 2 -4.5t2.5 -4.5t3.5 -4q4 -4 9 -6.5t10 -2.5l160 -40l-218 -236z" />
    <glyph glyph-name="uniE616" unicode="&#xe616;" 
d="M512 834q-61 0 -119.5 -16t-108 -45t-91 -70.5t-70.5 -91t-45 -108t-16 -119.5q0 -92 35.5 -175t96 -143.5t143.5 -96t175 -35.5t175 35.5t143.5 96t96 143.5t35.5 175t-35.5 175t-96 143.5t-143.5 96t-175 35.5zM512 -21q-110 0 -203.5 54t-147.5 147.5t-54 203.5
t54 203.5t147.5 147.5t203.5 54t203.5 -54t147.5 -147.5t54 -203.5t-54 -203.5t-147.5 -147.5t-203.5 -54zM506 164q-4 0 -7 4t-3 10q0 32 47 185q29 94 29 107q0 10 -7.5 16t-22.5 6q-25 0 -61.5 -20t-80.5 -67l19 -15q39 37 50 44q3 2 5 3l6 2q2 1 4.5 1.5t4.5 0.5
q8 0 8 -9q0 -8 -3 -17q-66 -211 -66 -265q0 -9 2 -15.5t7 -10.5q9 -10 25 -10q17 0 45 15.5t89 71.5l-18 16q-58 -53 -72 -53zM593 654q-18 0 -30.5 -13.5t-12.5 -33.5q0 -14 9 -24q4 -4 9.5 -6.5t12.5 -2.5q16 0 30 14.5t13 33.5q0 14 -8 23q-3 3 -6.5 5t-7.5 3t-9 1z" />
    <glyph glyph-name="uniE617" unicode="&#xe617;" 
d="M976 355l-464 435l-464 -433q-7 -7 -7.5 -16t6 -16t16 -7.5t16.5 6.5l433 404l433 -405q3 -2 5.5 -3.5t5 -2.5t5.5 -1q10 0 16 8q7 6 6.5 15.5t-7.5 15.5zM834.5 346q-9.5 0 -16 -6.5t-6.5 -15.5v-345h-180v240h-240v-240h-180v345q0 9 -6.5 15.5t-16 6.5t-16 -6.5
t-6.5 -15.5v-390h270v240h150v-240h270v390q0 9 -6.5 15.5t-16 6.5zM677 669h135v-120q0 -9 6.5 -16t16 -7t16 7t6.5 16v165h-180q-9 0 -16 -6.5t-7 -16t7 -16t16 -6.5z" />
    <glyph glyph-name="uniE618" unicode="&#xe618;" 
d="M964 378v3v2q-2 114 -57.5 211t-149 157t-206.5 69q-17 1 -35 1h-10h-11q-87 -4 -166 -41t-136 -96.5t-90.5 -140.5t-33.5 -170q0 -91 35 -174t95 -143t143 -95.5t174 -35.5h2q58 1 112.5 15.5t103.5 41.5q99 55 160.5 151.5t69.5 212.5v4v1v11v11v3v2zM516 -38
q-153 0 -260 88l-2 2q5 5 16 12q96 61 185 70q11 1 20 7.5t14.5 16.5t5.5 21q0 42 -28 82q-78 111 -60 256q11 98 129 98q22 0 42 -6t35.5 -16.5t27 -26t18 -35t7.5 -41.5q1 -2 1 -34q-8 -146 -95 -239q-5 -6 -4.5 -34t4.5 -36q6 -11 22 -14q94 -19 171 -70q3 -1 5 -2.5
t3.5 -3t2.5 -3.5q-113 -92 -260 -92zM807 83q-4 1 -10 6q-23 19 -50.5 33t-54.5 23.5t-59 16.5q-14 3 -21.5 10t-6.5 17t10 22q95 117 86 282q-4 75 -47.5 117t-119.5 42q-91 0 -132 -58.5t-34 -150.5q10 -133 81 -226q6 -8 7.5 -16.5t-1.5 -15t-10 -11.5t-17 -7
q-109 -19 -186 -78q-1 -1 -2.5 -2t-3 -1.5t-3.5 -1.5t-3.5 -1.5t-3.5 -0.5q-28 28 -50 61t-38 70t-24.5 77.5t-8.5 82.5q0 48 11 94q6 26 16 51q29 78 85.5 138t134.5 94t164 34q112 0 206.5 -55t150 -149.5t55.5 -206.5q0 -56 -15 -109t-41.5 -98.5t-64.5 -82.5z" />
    <glyph glyph-name="uniE619" unicode="&#xe619;" 
d="M977 -112h-186q-6 0 -12 2.5t-10 6.5t-6.5 10t-2.5 12q0 8 4 15.5t11.5 11.5t15.5 4h155v155q0 8 4 15.5t11.5 11.5t15.5 4q13 0 22 -9t9 -22v-186q0 -13 -9 -22t-22 -9zM977 632q-13 0 -22 9t-9 22v155h-155q-13 0 -22 9t-9 22t9 22t22 9h186q13 0 22 -9t9 -22v-186
q0 -6 -2.5 -12t-6.5 -10t-10 -6.5t-12 -2.5zM233 818h-155v-155q0 -13 -9 -22t-22 -9t-22 9t-9 22v186q0 8 4 15.5t11.5 11.5t15.5 4h186q13 0 22 -9t9 -22t-9 -22t-22 -9zM171 74v620q0 13 9 22t22 9h620q13 0 22 -9t9 -22v-620q0 -13 -9 -22t-22 -9h-620q-13 0 -22 9
t-9 22zM233 136q0 -13 9 -22t22 -9h496q13 0 22 9t9 22v496q0 13 -9 22t-22 9h-496q-13 0 -22 -9t-9 -22v-496zM47 136q3 0 6 -0.5t6 -2t5.5 -3t4.5 -3.5t3.5 -4.5t3 -5.5t2 -6t0.5 -6v-155h155q13 0 22 -9t9 -22q0 -3 -0.5 -6t-2 -6t-3 -5.5t-3.5 -4.5t-4.5 -3.5t-5.5 -3
t-6 -2t-6 -0.5h-186q-6 0 -12 2.5t-10 6.5t-6.5 10t-2.5 12v186q0 8 4 15.5t11.5 11.5t15.5 4z" />
    <glyph glyph-name="uniE61A" unicode="&#xe61a;" 
d="M512 834q-186 0 -318 -132t-132 -318t132 -318t318 -132t318 132t132 318t-132 318t-318 132zM512 -31q-113 0 -208.5 55.5t-151 151t-55.5 208.5q0 85 32.5 161.5t88.5 132.5t132.5 88.5t161.5 32.5t161.5 -32.5t132.5 -88.5t88.5 -132.5t32.5 -161.5
q0 -113 -55.5 -208.5t-151 -151t-208.5 -55.5zM637 436.5q0 -30.5 21.5 -52t52 -21.5t52 21.5t21.5 52t-21.5 52.5t-52 22t-52 -22t-21.5 -52.5zM587 337q0 6 -3.5 10t-9 4t-9.5 -4t-4 -10q-2 -22 -16 -37t-33 -15q-9 0 -18 4t-15.5 11t-10.5 16.5t-5 20.5q0 6 -4 10t-9 4
t-9 -4t-4 -10q0 -33 21.5 -56t51.5 -23h4q11 0 22.5 4t20.5 11t15.5 16.5t10.5 21.5t4 25v1zM334 410q0 6 2 12q-14 3 -28 5t-29 2q-16 0 -32 -2v-1q-6 0 -10.5 -5t-4.5 -11q0 -4 2 -8t5.5 -6t7.5 -3q17 2 32 2q37 0 67 -11q-6 5 -9 12t-3 14zM368 445q5 0 9.5 -1.5t8.5 -4
t7 -6t5 -7.5q-7 17 -19 31.5t-27.5 25t-34 16.5t-38.5 6q-11 0 -18.5 -7.5t-7.5 -18.5t7.5 -18.5t18.5 -7.5q35 0 58 -27q10 19 31 19zM389 384h-43q10 -8 22 -8q6 0 11.5 2t9.5 6zM389 384q13 10 13 26q0 6 -2 12q0 1 -1 2l-1 2q-9 19 -30 19t-31 -19h1l4 -5q-2 0 -4 1h-2
q-1 -2 -1.5 -4t-0.5 -4v-4q0 -16 12 -26h43z" />
    <glyph glyph-name="uniE61B" unicode="&#xe61b;" 
d="M227 369q-35 8 -25 41l24 90l30 -8l-5 -18l92 -24l10 37l-127 34l7 27l157 -42l-24 -91l-122 32l-10 -38q-5 -15 11 -19l73 -19q18 -7 24 9q1 3 5 11q1 4 2.5 7.5t2.5 5.5q2 -1 4 -2.5t4 -2.5l4 -2q2 -1 4 -2.5t4 -2.5l4 -2q2 -1 3 -2q-3 -9 -6.5 -17t-7.5 -15
q-11 -22 -43 -13zM408 314l22 82q-10 -9 -19 -16q1 10 2.5 20t2.5 20q15 15 28 34t25 41l27 -15q-11 -19 -26 -39l-37 -134zM566 272q-46 18 -67 35q-14 -6 -47 -8l-11 28q22 -2 35 1q-7 11 -14 25l20 9l-16 4l18 66l46 -13l3 13l-49 13l6 24l50 -13l5 18l28 -8l-4 -18
l51 -14l-7 -24l-52 14l-3 -12l47 -13l-19 -72l-26 7l1 7l-22 6q-6 -17 -17 -28q10 -6 25 -12.5t37 -12.5q-1 0 -1 -1l-3 -3q-9 -11 -14 -18zM501 338q6 5 11 16l-27 7q6 -13 16 -23zM504 402l-6 -21l20 -5l6 21zM573 384l-21 6l-6 -21l21 -6zM629 252q-1 0 -2.5 1.5
t-2.5 3.5q-6 5 -10 9l-7 7q15 14 22 29q7 13 15 44l24 86l161 -43l-40 -148q-6 -27 -33 -19q-10 2 -28 6q1 13 2 27l18 -5q12 -4 14 6l5 16l-39 11l-13 -48l-28 8l12 47l-38 10q-4 -13 -12 -25t-20 -23zM673 338q-3 -10 -3 -12l36 -10l6 23l-36 10zM689 398l-6 -24l36 -9
l6 23zM741 331l-6 -23l39 -10l6 23zM793 370l-39 10l-6 -23l39 -10zM512 599q21 0 41.5 -4t38.5 -11.5t35 -18.5t31.5 -24t26.5 -29l27 -8q-21 34 -51 59.5t-68.5 39.5t-80.5 14q-30 0 -58.5 -7.5t-54.5 -21.5l27 -7q41 18 86 18zM653 611l15 -12l5 18l16 10l-16 9l-5 19
l-15 -13l-20 2l8 -17l-8 -18zM393 652l-15 10l-4 -19l-16 -12l18 -8l5 -18l14 14l19 1l-8 17l6 18zM537 678l-11 15l-9 -17l-19 -7l14 -13v-19l17 9l19 -5l-3 19l12 15zM746 561l-16 11l-2 -19l-16 -11l18 -9l7 -18l13 14l19 -1l-9 17l5 18zM956 420l-811 217q-7 2 -14.5 1
t-13.5 -4.5t-11 -9.5t-7 -13l-58 -217q-4 -15 4 -28.5t23 -17.5l811 -217q7 -2 14.5 -1t13.5 4.5t11 9.5t7 13l58 217q2 7 0.5 14.5t-4.5 13.5t-9 11t-14 7zM962 370l-53 -199q-2 -7 -7 -12.5t-12.5 -7t-14.5 0.5l-793 212q-12 3 -17.5 13t-2.5 21l53 199q3 11 13 16.5
t21 2.5l793 -212q12 -3 17.5 -13t2.5 -21zM512 720q115 0 205.5 -70t119.5 -179l20 -6q-13 59 -45.5 109.5t-77.5 86.5t-102.5 57t-119.5 21q-75 0 -142 -29.5t-116 -82.5l20 -5q47 46 108.5 72t129.5 26zM598 187q-41 -18 -86 -18q-52 0 -97.5 23.5t-75.5 63.5l-27 8
q31 -52 84 -82.5t116 -30.5q60 0 113 29zM397 148l-14 13l-5 -19l-17 -9l17 -10l5 -18l14 12l20 -2l-8 18l8 17zM512 91l11 -15l9 17l19 6l-14 13v19l-17 -9l-19 5l3 -18l-11 -16zM276 208l15 -12l4 18l16 10l-17 10l-6 19l-14 -13l-19 2l8 -18l-6 -17zM512 48
q-115 0 -205.5 70t-119.5 179l-20 6q28 -119 124 -196.5t221 -77.5q75 0 142 29.5t116 82.5l-20 5q-47 -46 -108.5 -72t-129.5 -26zM647 117l15 -11l4 19l15 11l-17 9l-5 18l-14 -14l-19 -1l8 -17l-6 -18z" />
    <glyph glyph-name="uniE61C" unicode="&#xe61c;" 
d="M857 -26q43 24 69 43l6 5q7 4 8 5q18 15 18 38q0 22 -17 36l-198 164q-14 10 -31 10q-19 0 -33 -13l-34 -34q-15 -15 -37 -15t-37 15l-203 203q-5 5 -8.5 11.5t-5.5 13t-2 13.5t2 13.5t5.5 12.5t8.5 11l33 33q13 14 13 34q0 10 -3.5 18.5t-9.5 14.5l-170 206q-7 8 -17 13
t-21 5q-24 0 -38 -20l-3 -4q-86 -115 -86 -204q0 -37 20.5 -87t54.5 -103.5t81 -110t99 -108.5t108.5 -99t109.5 -81t103 -54.5t87 -20.5h6l5 1q63 5 117 35z" />
    <glyph glyph-name="uniE61D" unicode="&#xe61d;" 
d="M1027 447q0 4 -1 7l-69 221v100q0 9 -7 15.5t-16 6.5h-847q-10 0 -16.5 -6.5t-6.5 -15.5v-93q0 -1 -1 -2l-72 -225q-1 -3 -1 -6v-52q0 -38 17 -70t47 -52l-2 -9v-365q0 -9 7 -15.5t16 -6.5h864q9 0 15.5 6.5t6.5 15.5v313q0 9 -6.5 15.5t-16 6.5t-16 -6.5t-6.5 -15.5
v-290h-818v331q19 -5 38 -5q26 0 50 9t42.5 24.5t31.5 36.5q20 -32 53 -51t72 -19q25 0 49 8.5t42.5 24t32.5 36.5q19 -32 52 -50.5t71 -18.5q26 0 50 9t43 24.5t32 36.5q13 -21 32 -36.5t42.5 -24.5t49.5 -9q40 0 73.5 19.5t53.5 53.5t20 74zM109 752h802v-57h-802v57z
M881 296q-20 0 -39 8t-32.5 21.5t-21.5 32t-8 39.5q0 9 -6.5 15.5t-15.5 6.5h-2q-10 0 -16.5 -6.5t-6.5 -15.5q0 -17 -5 -32t-14.5 -27.5t-22 -22t-27.5 -14.5t-32 -5q-27 0 -50 13.5t-36.5 36.5t-13.5 51q0 9 -7 15.5t-16 6.5h-1q-4 0 -8.5 -1.5t-7.5 -4.5t-4.5 -7.5
t-1.5 -8.5q0 -17 -5.5 -32t-14.5 -27.5t-21.5 -22t-28 -14.5t-31.5 -5q-21 0 -39.5 8t-32 21.5t-21.5 32t-8 39.5q0 9 -6.5 15.5t-16.5 6.5h-2q-6 0 -11 -3t-8 -8t-3 -11q0 -21 -8 -39.5t-21.5 -32t-32.5 -21.5t-39 -8q-8 0 -16 1.5t-15.5 4t-14.5 6t-13.5 8t-12 10
t-10 11.5t-8 13t-6 14.5t-4 15.5t-1.5 17l1 48l65 205h816l64 -206l1 -47q0 -42 -29.5 -71.5t-71.5 -29.5z" />
    <glyph glyph-name="uniE61E" unicode="&#xe61e;" 
d="M65 61zM352 638q-31 45 -59 74q-36 37 -60 37q-6 0 -13 -2t-14 -5.5t-14 -8.5t-14 -11t-14 -12.5t-14 -14t-13 -15t-12 -14.5q-63 -84 -63 -152q0 -12 2.5 -25.5t6 -27t9 -28t12.5 -27.5l13 -27q7 -14 14 -26l14 -24q68 -109 170 -214l22 -22q105 -103 215 -170
q115 -71 184 -71q68 0 152 63q34 26 58.5 55t24.5 53t-37 60q-28 27 -73 59q-43 30 -81 50q-44 23 -65 23q-26 0 -45 -27q-2 -3 -4 -6.5t-4 -7.5l-4 -7q-1 -3 -3 -7.5t-3.5 -7t-3.5 -7.5q-12 -27 -17 -34l-2 -3l-3 1q-23 5 -71 38q-56 38 -102 83q-45 46 -84 102
q-32 48 -38 71l-1 3l3 3q3 2 10 5.5t11.5 5.5t12.5 6q30 13 43 22q27 18 27 45v3q0 2 -1 5v6q-1 3 -2.5 6.5t-3 8.5t-4 10t-5.5 11.5t-7 13.5q-20 39 -50 81zM381 490q-1 -2 -4 -4.5t-8 -5.5q-9 -5 -31 -15q-5 -2 -8 -3.5t-8 -3.5t-8 -3.5t-7 -4t-7 -4.5q-25 -16 -24 -39
q0 -32 46 -99q40 -59 88 -108q49 -48 109 -89q66 -45 98 -46q6 0 11.5 1.5t10.5 5t9.5 8t8.5 10.5q7 11 18 37q3 6 4 9t3.5 7.5t4 8.5t3.5 7q6 9 10 12l2 1h2q13 -2 43 -18q34 -17 72 -44q31 -21 53.5 -40t31.5 -29.5t12 -16.5l1 -2l-1 -2q-1 -2 -2 -4.5t-5.5 -9
t-10.5 -14.5q-20 -23 -50 -45q-72 -52 -124 -52q-57 0 -162 64q-105 65 -207 164l-21 22q-99 101 -164 207q-31 50 -48 92.5t-17 69.5q0 52 53 123q22 31 45 50q5 5 10 9t8.5 5.5t5.5 2.5l4 2h2l1 -1q5 -2 12 -8t17.5 -16.5t25.5 -29.5t31 -42q27 -39 45 -72q5 -10 8.5 -18
t5 -13t2.5 -7.5t1 -4.5l1 -2z" />
    <glyph glyph-name="uniE620" unicode="&#xe620;" 
d="M93 767v-163h50v47h743v-47h49v163h-842zM848 617h-668v-535h-89v-106h841v106h-84v535zM492 77h-192v370h192v-370zM665 252h-83v83h83v-83zM665 366h-83v81h83v-81zM778 252h-82v83h82v-83zM778 366h-82v81h82v-81z" />
    <glyph glyph-name="uniE621" unicode="&#xe621;" 
d="M504 861q-97 0 -186 -38t-153 -102t-102 -153t-38 -186.5t38 -186.5t102 -153t153 -102t186.5 -38t186.5 38t153 102t102 153t38 186q0 66 -17.5 128t-48 114.5t-75 97t-97 75.5t-114.5 48t-128 17zM759 168h-508v40h83v274h44v-274h130v347h-234v40h465v-40h-187v-134
h170v-39h-170v-174h207v-40z" />
    <glyph glyph-name="uniE622" unicode="&#xe622;" 
d="M512 834q-73 0 -140 -29t-115 -78.5t-76.5 -117.5t-28.5 -143q0 -150 244 -415q64 -69 116 -117q8 7 20.5 19t50 50.5t71.5 76.5t75.5 91t71.5 101t50.5 100t20.5 94q0 100 -48 184.5t-131 134t-181 49.5zM512 316q-32 0 -61 12.5t-50.5 34t-34 50.5t-12.5 61
q0 65 46.5 111.5t111.5 46.5t111.5 -46.5t46.5 -111.5t-46.5 -111.5t-111.5 -46.5z" />
    <glyph glyph-name="uniE623" unicode="&#xe623;" 
d="M529 418h129v-30h-129v30zM370 473h128v-30h-128v30zM981 277q6 26 9 53t3 54q0 98 -38 187t-102.5 153.5t-153.5 102.5t-187 38q-78 0 -151.5 -24.5t-132.5 -69t-103.5 -103.5t-69 -132.5t-24.5 -151.5q0 -98 38 -187t102.5 -153.5t153.5 -102.5t187 -38q66 0 129 18
q127 35 218.5 131t121.5 225zM725 559v-29h-196v-31h160v-137h-160v-36q57 0 111 1q-1 2 -2.5 3t-3.5 3t-3.5 3t-3.5 3l-3 3l24 18q47 -39 82 -73l-27 -21q-8 9 -17 18l-17 17q-117 -2 -364 -9l-2 33h195v37h-128v-11h-32v148h160v31h-195v29h195v37h31v-37h196zM734 201
l-28 -20q-21 30 -56 72l25 18q24 -26 59 -70zM465 199h94q31 0 36 20q4 17 6 43q5 -2 33 -13q-2 -12 -4 -22.5t-4 -20.5q-8 -39 -60 -39h-109q-56 0 -56 56v53h34v-50q0 -27 30 -27zM479 277l24 18q33 -30 53 -54l-27 -22q-22 29 -50 58zM368 264q-4 -10 -8.5 -20
t-8.5 -19.5t-8.5 -18t-9 -16.5t-9.5 -15l-30 16q13 19 23.5 40.5t19.5 45.5zM529 473h129v-30h-129v30zM370 418h128v-30h-128v30z" />
  </font>
</defs>
</svg>
